loituma Loituma Girl (also known as "Leekspin") is a Flash animation set to a scat singing section of the traditional Finnish folk song "Ievan polkka," sung by the Finnish quartet Loituma on their 1995 debut album Things of Beauty. At 1:08, a picture of Regan MacNeil from The Exorcist with no eyes pops up with a high-pitched female scream, ending the video. 1998 Kuutamolla. gl/ZcHXGU🔥 Merchandising 🔥 T-shirts, Hoodies, Stickers, Flag Leekspin (or Loituma) is a fad involving an image of Orihime Inoue from the Bleach Anime spinning a leek. Updated 11 Nov 2019. Compartir en Facebook Loituma je fínske kvarteto, spájajúce fínsku vokálnu tradíciu s nádhernými zvukmi päťstrunovej kantele. This is a collection of Finish Polkka done by the band Loituma. You may also like Loituma Girl. Difficulty: intermediate. Ieva's Polka (Ievan Polkka) (Basshunter Remix) Lyrics; SongMeanings is a place for discussion and discovery. In later games, she either explodes immediately or after a few seconds. Genres: Finnish Folk Music, Vocal Group, A cappella. 6K: flash_loituma_archive Listen to Loituma on Spotify. This site is the closest I can find to an "official" site for the Loituma Clock itself, while the Loituma Girl (taken from episode two of the Bleach anime series) has her own Wikipedia page. swf soubor, který se skládá z donekonečna se opakující animace s holčičkou Orihime Inoue z japonského manga seriálu Bleach (bližší informace najdete o odstavec níže). About Loituma is a folk quartet based in Finland; it was formed at the Sibelius Academy of Music in Helsinki, where members attended the folk music department. Most climbed song of Loituma reached +36 positions up. one more time, Ieva's Polka was written by a couplet writer active in 1920-1930 by the name of Eino Kettunen. swf file that consists of a looping animation of BLEACH character Orihime Inoue, coupled with the middle-eight portion of Ievan Polkka, a Finnish folk song. 116,997 views, added to favorites 339 times. Explore 3 meanings and explanations or write yours. Loituma performs their song Ievan's Polkka in a rare techno version. However, you can save her by putting her in a cage. Loituma; Search an artist or a title. She can be alive Loituma is a folk quartet based in Finland; it was formed at the Sibelius Academy of Music in Helsinki, where members attended the folk music department. com Loituma Ievan Polkka Lyrics. It's easy Loituma leva's polka songs - tablature, midis, sheet music, notes, chords, tab for piano, keyboard, flute, guitar, organ, synth, bass Original lyrics of Ievan Polka (English) song by Loituma. SoundCloud Loituma - Levan Polkka (GROZ Flip) by GROZ published on 2020-09-29T10 Leekspin / Loituma Girl Uploaded by DFKurai Johnny English Leek Spin Leekspin / Loituma Girl Uploaded by coletrain512 The GAG Quartet - le Internet This is a rip made from 2 sources, an SACD and a Blu-ray. Kiitos, up FOLLOW US:www. I was surfing the web outside of YouTube for a while and Home / L / Loituma / Levan Polka tab Loituma – Levan Polka tab Loituma - Levan Polka Tabbed by: Juno DG Email: [email protected] . "Ievan Polkka" atau "Ievan Polokka" (Bahasa Suomi Savo yang berarti "Polka Eva") adalah sebuah lagu populer dari Finlandia yang liriknya ditulis pada sekitar tahun 1930-an oleh Eino Kettunen dalam melodi tradisional polka Finlandia. osu! » beatmaps » Loituma - Ieva's Polka. loituma. Loituma - Ieva's Polka, Ievan Polkka Good Sound. Loituma walkthrough, cheats and review! View Loituma song lyrics by popularity along with songs featured in, albums, videos and song meanings. com, which featured the loop along with Loituma's "Ievan Polkka" playing in the background. The original lineup included singers Sanna Kurki-Suonio and Tellu Turkka (formerly Tellu Paulasto, Tellu Virkkala), who later left for Sweden to join Hedningarna. loituma - ievan polkka ukulele (chords) (0/5) 2013-06-11 : 52: loituma - leekspin (bass tab) (0/5) 2013-01-15 : 32: loituma - levan polka (guitar pro) (0/5) 2012-11-07 : 138: loituma - levas polka (guitar pro) (0/5) 2012-11-07 : 124: loituma - levas polka (ver 2) (guitar pro) (0/5) 2012-11-07 : 91: loituma - levas polka solo (guitar tab) (0/5 Loituma Leva's Polka (Englisch) Lyrics. Loituma -Ievan Polkka(Evas Polka Loituma je finské kvarteto, založené v roce 1989, které kombinuje finské tradiční písně se zvukem kantele. our partners use cookies to personalize your experience, to show you ads based on your interests, and for measurement and analytics purposes. Discover releases, reviews, credits, songs, and more about Loituma - Kuutamolla at Discogs. Metacafe Affiliate U Subscribe Unsubscribe 2 370 6 Sep 2009 Respected fans if you are reading this, you are on on the page of the singer loituma in our eLyricsWorld. From Wikipedia: The Loituma version of the song includes an intermezzo of phonetically inspired gibberish containing only a few Finnish words; it is not part of the original song written by Eino Kettunen. Ieva's Polka (Ievan Polkka) (Basshunter Remix) Lyrics; SongMeanings is a place for discussion and discovery. pl How to Have Fun With Memes in Scribblenauts. 37 Followers. It is my own rip. PERFORMER "Loituma" INDEX 01 00:00:00 FILE "03_Viimesen Kerran_The Very Last Time. com, which featured the loop along with Loituma's "Ievan Polkka" playing in the background. Loituma perustettiin vuonna 1989 nimellä Jäykkä Leipä, kun yhtyeen jäsenet aloittivat opintonsa Sibelius-Akatemian kansanmusiikin osastossa. Loituma je finski kwartet, kotryž finsku spěwansku tradiciju ze zynkom kantele kombinuje. 2 contributors total, last edit on Nov 13, 2020. com/temp/loituma. First appearing on the Internet in late April of 2006, the . Loituma, Category: Artist, Monthly Listeners: 27633, Where People Listen: Hamburg, Munich, Berlin, Stuttgart, Frankfurt am Main We and our partners use cookies to personalize your experience, to show you ads based on your interests, and for measurement and analytics purposes. I know the words in English and heard the song in Fin but just asking if anyone knows of this song sung in English. Loituma Girl (also known as "Leekspin") is a Flash animation set to a scat singing section of the traditional Finnish folk song "Ievan Polkka," sung by the Finnish quartet Loituma on their 1995 debut album Things of Beauty. They follow Finnish vocal and kantele traditions, producing quartet arrangements for both Finnish harp and a cappella vocals, their music ranging from the rousing to the haunting. It is similar to scat in jazz. mid Musical Notes Distribution. Guitar, guitar pro, bass, drum tabs and chords with online tab player. Таксама Loituma Loituma (Musical group) VIAF ID: 151583566 (Corporate) Permalink: http://viaf. This classic song from Finnish quartet Loituma never gets old. . Download and print in PDF or MIDI free sheet music for Ievan Polkka by Loituma arranged by Michał Szupryczyński for Soprano, Alto, Bass, Mezzo Soprano (Choral) Get Loituma setlists - view them, share them, discuss them with other Loituma fans for free on setlist. instagram. Ieva's Polka (original version) Basically like the the catchy Ievan Polka song with a catchy beat for the background music. Difficulty: novice. Ir a la radio del artista ; Compartir. flac" WAVE TRACK 03 AUDIO TITLE "Viimesen Kerran / The very last time" PERFORMER "Loituma" INDEX 01 00:00:00 FILE "04_Minuet And Polska. com/trapmusichdI EDIT: I added the STORY IN ENGLISH! :-)Huikeatunnelmaisen 50-vuotisjuhlakonserttini huippuhetkiä oli esittää rakkaan Loituman kanssa Ievan polkka. Is there a version sung in English of Loituma Levan Polka. Album Loituma. 2:45. According to the Theorytab database, it is the 10th most popular key among Minor keys and the 19th most popular among all keys. Eriskummainen kantele: Comments. Nannette Jeter. Loituma is a Finnish quartet whose members combine the Finnish vocal tradition with the sounds of the kantele. Loituma Loituma Label Kansanmusiikki-instituutti Release year 1995 Loituma выконвае музыку народаў Фінляндыі: фінаў, карэлаў, саамаў. Sanna Kurki-Suonio och Tellu Turkka, som senare blev medlem i Hedningarna. Eriskummainen kantele: Comments. Given a piece of music, it is interesting to count how many times each of the individual twelve musical notes is played, and understand their relative weight, or importance, in the piece. Loituma · Single · 2007 · 5 songs. 1,214 likes · 2 talking about this. The highest Loituma 's charting position is #35 , and the worst ranking place is #75 . Translation of 'Ievan polkka' by Loituma from Finnish to English. 3:31. Mellissa Chamberlain. Шматлікія тэксты ўзяты з карэла-фінскага эпасу « Калевала » і са зборніка фінскай народнай паэзіі « Кантэлетар ». I disliked how alot of the songs seem alot alike in sound and syle. Nuapurista kuulu se polokan tahti jalakani pohjii kutkutti. Given a piece of music, it is interesting to count how many times each of the individual twelve musical notes is played, and understand their relative weight, or importance, in the piece. Difficulty: novice. If you want to start a YMMV/Loituma page, just click the edit button above. Loituma jo finski kwartet, kótaryž finsku spiwańsku tradiciju ze zukom kantele kombiněrujo. About The Key Of D♯ Minor. trackback. In Scribblenauts, if you put Earth Magic on a Loituma girl, the game freezes. Loituma always seems to create music that simply transports you into a different plane (or perhaps into the past). The Lyrics for Nuustielle by Loituma have been translated into 1 languages Syksy saapui jälleen ja kutina mieleen päätti hän taasen lähteä tielleen Reppuun laittoi vain ne rakkahat kamppeet muistoja mieleen tuli, silmiin veet. I really enjoyed onesong Ievan Polkka. Tuning: E A D G B E. flac" WAVE TRACK 03 AUDIO TITLE "Viimesen Kerran / The very last time" PERFORMER "Loituma" INDEX 01 00:00:00 FILE "04_Minuet And Polska. What will you get: Blu-ray 1-To-1 rip from the Immersion Box (Discogs Link)In the Blu-ray you get 3 versions of the album: Response to Loituma Translation 2009-05-26 14:18:20 The song is in Finnish. Loituma Share Collapse Notice: Many browsers are beginning to disable or hide the Adobe Flash plugin, in preparation for its end-of-life in December 2020. S. Loituma’s initial incarnation was in the autumn of 1989 as a septet called Jayka Leipa(“Stiff Bread”), born in the Sibelius Academy’s Folk music department. Loituma members compose or arrange the tunes by themselves, often using improvisation. mid Musical Notes Distribution. Another cornerstone of Loituma's art is a Finnish folk instrument called kantele, which is featured in varied ways in their recordings. Pour ceux qu'internet n'a pas encore fini de lobotomiser. Discover releases, reviews, credits, songs, and more about Loituma - Ieva's Polka at Discogs. Listen to Ievan's Polka on Spotify. We have 0 albums and 4 song lyrics in our database. Jejich asi nejznámější písní je Ievan Polkka . Reviews Reviewer View credits, reviews, tracks and shop for the 1995 CD release of "Loituma" on Discogs. Ievan äiti se tyttöösä vahti Em Am Vaan kyllähän ieva sen jutkutti, Em Sillä ei meitä silloin kiellot haittaa Dm Am Kun myö tanssimme laiasta laitaan. Anita Lehtola var tidigare även medlem i Hedningarna. 'Cause who's going to listen to mother saying no when we're all busy dancing to and fro! Ieva was smiling, the fiddle it was wailing as Děvčátko Loituma (Loituma Girl) je malý . Com . Loituma lyrics with translations: Ievan polkka, Kun mun kultani tulisi, Eriskummainen kantele, Kultaansa ikävöivä, Viimesen kerran, Kolme kaunista, Ai, Ai Taas Sattuu Loituma Girl is an internet meme, based off ofOrihime InouefromBleach. Loituma estis la ”grupo de la jaro 1997” (finne: Vuoden yhtye 1997) en la muzikfestoj de Kaustinen. Login or register to post comments; Music Tales. At ease with four-part unaccompanied vocals as well as four-part kantele instrumentals, Loituma was selected Band of the Year at the 1997 Kaustinen Folkmusic Festival. Loituma bu w lěće 1997 při „Kaustinen Folkmusic Festival“ k „Band of the Year“ wuzwolena. osu! » beatmaps » Loituma - Ievan Polkka. comwww. This performance was recorded in 1996. com/TrapMusicHDTwitter: https://twitter. Metacafe Affiliate U Subscribe Unsubscribe 2 370 6 Sep 2009 Holly Dolly - Dolly Song (Loituma Levas Polka Basshunter Dac remix). They follow Finnish vocal and kantele traditions, producing quartet arrangements for both Finnish harp and a cappella vocals, their music ranging from the rousing to the haunting. 14. Stan Bayer. Translation of 'Kultaansa ikävöivä' by Loituma from Finnish to English. Loituma: Top 3. Sort by: Popularity. PERFORMER "Loituma" INDEX 01 00:00:00 FILE "03_Viimesen Kerran_The Very Last Time. html so credit wh Loituma Levan Polka (Jarnos Tribute To Basshunter Mix) Xibaloxijo. Alun perin seitsenjäseniseen yhtyeeseen kuuluivat myös laulaja Sanna Kurki-Suonio ja laulaja, viulisti Tellu Turkka, jotka myöhemmin liittyivät ruotsalaiseen Hedningarna-yhtyeeseen. Loituma lyrics, Loituma discography sorted by album. Loituma - Ievan Polkka (Evas Polka)1996. mid- osu! » beatmaps » Hatsune Miku - Ievan Polkka. Na festivalu folkové hudby v Kaustinenu v roce 1997 bylo zvoleno skupinou roku. Loituma performs “Eva’s Polka”. Add to wishlist. 18,131 views, added to favorites 92 times. 1,097,225 Lyrics; 110,886 Artists; The video is an edited version of the leekspin meme, which consists of the GIF of Orihime Inoue from the Japanese anime/manga Bleach spinning a leek with the music Ievan Polkka by Loituma. Don't put in redirects for shows, books, etc. Addeddate 2012-05-22 20:36:22 Identifier LevasPolka. Language Loituma’s initial incarnation was in the autumn of 1989 as a septet called Jäykkä Leipä ("Stiff Bread"), born in the Sibelius Academy’s Folk music department. We have 0 albums and 4 song lyrics in our database. jpg: 27-Oct-2020 21:45: 9. This performance was recorded in 1996. levas polka 1 - Levas Polka . Download osu! to create your own account! This is Ieva's Polka with all 5 Ievan Polka songs on it! 1. Neopets. Rashad Polly. Another cornerstone of Loituma's art is a Finnish folk instrument called kantele, which is featured in varied ways in their recordings. 1998 Loituma. gl/ZcHXGU🔥 Merchandising 🔥 T-shirts, Hoodies, Stickers, Flag Translation of 'Ievan polkka' by Loituma from Finnish to English. Stepmania: Leva's Polka (Basshunter Remix Loituma is a Finnish quartet whose members combine the Finnish vocal tradition with the sounds of the kantele. Loituma - Ieva's polka, Ievan Polkka good sound. Loituma’s initial incarnation was in the autumn of 1989 as a septet called Jäykkä Leipä ("Stiff Bread"), born in the Sibelius Academy’s Folk music department. Leva's Polka (Englisch) lyrics performed by Loituma: The sound of a polka drifted from my neighbor's and set my feet a-tapping oh! Ieva's mother had her eye on her daughter but Ieva she managed to fool her, you know. Be careful, though, the only things that go in the Main namespace are tropes and should be created through the YKTTW system. 30,910 views, added to favorites 142 times. Read more than 8 Millions Lyrics Ieva's polka - letra, canción: Nuapurista kuulu se polokan tahti, jalakani pohjii kutkutti. 0:28 [Download PDF] Guarding the Fuhrer Sepp Dietrich and Adolf Hitler. jonnydigital. Kultaansa ikävöivä Lyrics. by Loituma. Learn how to play your favorite songs with Ultimate Guitar huge database. Ievan äiti se tyttöösä vahti, vaan kyllähän Ieva sen [F#m C#m F#] Chords for Loituma - leva's Polka Piano Midi (FL Studio) + DOWNLOAD LINK with song key, BPM, capo transposer, play along with guitar, piano, ukulele & mandolin. She spins a Leek. facebook. Loituma is a young quartet who combine the Finnish vocal tradition with the exquisite sounds of the kantele (Finnish harp). Namnet Loituma kommer från Loitumasjön i östra Finland. 10 heures de bonheur crées à partir de https://www. Loituma ⇽ Back to List of Artists. Leek Spin Loituma estas finna popola muzikgrupo, kiu uzas en la muziko tradician finnan kantadon kaj kantelon. I'm from Finland myself, but Ievan Polkka is sung in such a thick Eastern Finland dialect with strange words and unintelligible figures of speech that I actually understand the English translation of the lyrics much better than the original Finnish lyrics. Loituma Girl (also known as "Leekspin") is a Flash animation set to a scat singing section of the traditional Finnish folk song "Ievan Polkka," sung by the Finnish quartet Loituma on their 1996 debut album Things of Beauty. Scribblenauts is different than other games in one case. Complete your Loituma collection. Search. Opciones. by Loituma. Loituma were selected Ensemble of the Year at the 1997 Kaustinen Folk Music Festival one more time, Ieva's Polka was written by a couplet writer active in 1920-1930 by the name of Eino Kettunen. Escuchar Aleatorio. Loituma Girl (also known as "Leekspin") is a Flash animation set to a scat singing section of the traditional Finnish folk song "Ievan Polkka," sung by the Finnish quartet Loituma on their 1996 debut album Things of Beauty. Facebook Twitter. Download osu! to create your own account! Background [edit | edit source] "Ievan Polkka" is a song written in the 1930's, set to a traditional Finnish melody. Leekspin (or Loituma) is a fad involving an image of Orihime Inoue from the Bleach Anime spinning a leek. Com quatro vocais e quatro kanteles, Loituma foi selecionado como a banda do ano em 1997 no Kaustinen Folkmusic Festival. Author danieldavidai [a] 26. The original lineup included singers Sanna Kurki-Suonio and Tellu Turkka (formerly Tellu Paulasto, Tellu Virkkala), who later left for Sweden to join Hedningarna. Ievan polkka: 2. com/TrapMusicHDSoundcloud: https://soundcloud. Not only that you can make dinosaurs or magic carpets appear, but you can also have fun internet memes throughout the game and in Free Scratch is a free programming language and online community where you can create your own interactive stories, games, and animations. Loituma bildades 1989 som septett under namnet Jäykkä Leipä ('Styvt bröd') vid musikhögskolan Sibelius-akademin. By using our website and our services, you agree to our use of cooki TIDAL is the first global music streaming service with high fidelity sound, hi-def video quality, along with expertly curated playlists and original content — making it a trusted source for music and culture. 2016 Repeat This is a very addicting Finnish hit; I saw many people playing this on their keyborads I decided to submit a tab that will sound fine on guitar. It appeared on the Internet in late April 2006 and quickly became popular. Añadir a favoritos. Kun mun kultani tulisi: 3. Discover all Loituma's music connections, watch videos, listen to music, discuss and download. 3:31. Stream ad-free or purchase CD's and MP3s now on Amazon. The listing of bands starting with 'L', page 75 at Ultimate-Guitar. mp4. 134 likes · 8 talking about this. Loituma Karaoke. Loituma’s initial incarnation was in the autumn of 1989 as a septet called Jäykkä Leipä ("Stiff Bread"), born in the Sibelius Academy’s Folk music department. com/watch?feature=player_embedded&v=Zby2 Loituma - Ievas Polka (basshunter remix) An icon used to represent a menu that can be toggled by interacting with this icon. Při animaci se také donekonečna opakuje část písničky Ievan Polkka od finského folkového kvarteru Loituma. The "Loituma Girl" Orihime Inoue twirling her leek is the background of the Flash animation. You could hear the beat of polka coming from the neighbors More Loituma Lyrics. The whole cd is a pretty decent album. 10 heures de bonheur crées à partir de https://www. Loituma pernah menjadi juara ansambel tahunan pada tahun 1997 pada festival musik rakyat Kaustinen. Language Pour ceux qu'internet n'a pas encore fini de lobotomiser. Ir a la radio del artista ; Compartir. Tuoll' on mun kultani, ain' yhä tuolla Kuninkahan kultaisen kartanon puolla Voi minun lintuni, voi minun kultani Kun et tule jo! Loituma - Ieva's Polka, Ievan Polkka Good Sound. Download osu! to create your own account! Stream Loituma - Ieva's Polka (Ievan Polkka) [Elektro Mix] by Minicrafttero777 from desktop or your mobile device I don't know what the hell this is, other than pure genius. A(z) "Loituma" című videót "kovioszi" nevű felhasználó töltötte fel a(z) "zene" kategóriába. Name Date. . Loituma bu w nazymje lěta 1989 ako septet Jäykkä Leipä (‘pšosty klěb’) na Loituma виконує пісні і музику народів Фінляндії — фінів, карелів, саамів. Loituma · Single · 2007 · 6 songs. Their first album, a self-titled effort, was released on the Listen to Loituma | SoundCloud is an audio platform that lets you listen to what you love and share the sounds you create. Track listing "Eriskummainen kantele / The peculiar kantele" – 3:42 "Kultaansa ikävöivä / Missing my beloved" – 4:24 "Viimesen kerran / The very last time" – 3:10 "Minuet and Polska" – 7:45 "Kun mun kultani tulisi / If only my darling came" – 5:10 Browse the best of our 'Leekspin / Loituma Girl' image gallery and vote for your favorite! Find out which memes were voted the top 10 of 2020! Advanced Search Protips Lyrics of IEVA'S POLKA by Loituma: Nuapurista kuulu se polokan tahti, jalakani pohjii kutkutti, Ievan äiti se tyttöösä vahti, vaan kyllähän Ieva sen Loituma tabs, chords, guitar, bass, ukulele chords, power tabs and guitar pro tabs including ievan polkka, leekspin The video is an edited version of the leekspin meme, which consists of the GIF of Orihime Inoue from the Japanese anime/manga Bleach spinning a leek with the music Ievan Polkka by Loituma. Escuchar Aleatorio. okay ive been told this is finnish so there you go Loituma Girl, a Studio on Scratch. The original lineup included singers Sanna Kurki-Suonio and Tellu Turkka (formerly Tellu Paulasto, Tellu Virkkala), who later left for Sweden to join Hedningarna. Ievan Polkka by Loituma - discover this song's samples, covers and remixes on WhoSampled Loituma, p1995: container (a young quartet who combine the Finnish vocal tradition with the sounds of the kantele (Finnish harp) insert (initial incarnation as a septet called Jaykka Leipa ("Stiff Bread") born in the halls of the Sibelius Academy Folk Music Department; the original line up included singers Sanna Kurki-Suonio and Tellu Paulasto) View credits, reviews, tracks and shop for the 1995 CD release of "Loituma" on Discogs. Loituma · Single · 2017 · 2 songs. com/tuuletarbandwww. Añadir a favoritos. Jumpstyle Music Genre JumpStyle Comment by Ely Loituma - Ievan Polkka Lyrics. Tá quietinho ou levas no focinho. Assist the actual performer through buying the initial compact disc Loituma Ievans Polkka Live Techno Original Version so the vocalist can provide the most effective song and also go on operating. Ievan Polkka lyrics performed by Loituma: Nuapurista kuulu se polokan tahti jalakani pohjii kutkutti. Login or register to post comments; Music Tales. Lyrics for Secret Tears (Salaisa kyyneleitä) by Loituma yaa tsi tsup ari dik ari dull an dik ari dill an dits tan dool la dippyduppy dull la roop uttyroopy la goorigan goook aya gittygangool arup cha cha adippydappydill la baritztandill lan den lan doe a barik kata barip pari baribadeebadeebadee standen lan doe ya baril las ten lan day a doe Loituma. Use the right namespace for those. 1. Ievan äiti se tyttöösä vahti vaan kyllähän Ieva sen jutkutti, Loituma is a folk quartet based in Finland; it was formed at the Sibelius Academy of Music in Helsinki, where members attended the folk music department. Loituma’s initial incarnation was in the autumn of 1989 as a septet called Jayka Leipa(“Stiff Bread”), born in the Sibelius Academy’s Folk music department. Com - Virtual Pet Community! Join up for free games, shops, auctions, chat and more! Nevíte o koho jde? Základní informace o skupině Loituma si můžete přečíst tady. Amazon. Historia. UdtaEngineer Page Is Provide Knowledge About Current Scenario Via Comedy Waves. Listen to both songs on WhoSampled, the ultimate database of sampled music, cover songs and remixes. Ievan äiti se tyttöösä vahti vaan kyllähän Ieva sen jutkutti sillä ei meitä silloin kiellot haittaa loituma-ievan_polkka. plus-circle Add Review. It appeared on the Internet in late April 2006 and quickly became popular. Chords and tablature aggregator - Tabstabs. Jatsutsappari! :D View Loituma song lyrics by popularity along with songs featured in, albums, videos and song meanings. wikipedia. facebook. Opciones. Browse the user profile and get inspired. [Verse 1] A|-0-0-0--2-3-0-0--3-2-----2-3-0-0-|-0-0-0--2-3-0-0--3-5-5-3-2--3-0-0-3-----| E|-0-----0-----3-3-3----0-----|-0-----0-----7-----0-----| C|-0-----0-----4 "The 'Loituma Girl' is a small . Comment and share your favourite lyrics. Loituma’s initial incarnation was in the autumn of 1989 as a septet called Jäykkä Leipä ("Stiff Bread"), born in the Sibelius Academy’s Folk music department. She also briefly displays the desire to follow Maxwell, before her destruction. Loituma’s initial incarnation was in the autumn of 1989 as a septet called Jayka Leipa(“Stiff Bread”), born in the Sibelius Academy’s Folk music department. Last updated on 09. לויטומה נבחרה להרכב השנה בפסטיבל המוזיקה העממית בקאוסטינן לשנת 1997. Loituma: Top 3. youtube. 1. If you meant one of those, just click and go. Tipikal lagu-lagu yang dinyanyikan Loituma adalah sedikit mengeluarkan vokal, tetapi maksud dan perasaan dalam lagunya tersampaikan dengan baik melalui permainan alat musiknya. Welcome to Beatport. Read about music by Loituma. Read about music Loituma is a Finnish quartet whose members combine the Finnish vocal tradition with the sounds of the kantele. Na festivalu folkové hudby v Kaustinenu v roce 1997 bylo zvoleno skupinou roku. 10 Tracks. Loituma -Ievan Polkka(Evas Polka 1996) roy_42. Add Loituma projects! managers: 10 1: crying 5: sad 10: close happy 15: happy "Ievan Polkka" or "Ievan Polokka" (Savo Finnish for "Eva's Polka") is a popular Finnish song with lyrics written in the early 1930s by Eino Kettunen to a traditional Finnish polka tune. The kantele, a mix of harp, hammered dulcimer, and zither, is Finland's national instrument, and Loituma show the range of its possibilities on this album. Loituma je finské kvarteto, založené v roce 1989, které kombinuje finské tradiční písně se zvukem kantele. 2:38. Ranging from the traditional, like "Leva's Polka" (which was released as a Finnish single and hit the charts), to the modern, the band covers a musical territory that encompasses the atmospheric with Marti Pokela's insidious Loituma Show all songs by Loituma Popular Loituma albums Things of Beauty. Find information about "Loituma" listen to "Loituma" on AllMusic. Nada kantele yang dimainkan diimprovisasi berbeda-beda untuk setiap lagu. Loituma Finnish Song October 2, 2006 Posted by Jeff in finnish, Loituma, video, yiddish, youtube. Their first album, a self-titled effort, was released on the // Capo on the 7th fret (to adapt it to Loituma's vocal pitch) // The chords of the 1st verse work for the whole song. Die groep bestaan uit Sari Kauranen op sang en kanteles, Anita Lehtola-Tollin op sang en 'n vyfstring-kantele, Timo Väänänen op sang en kanteles, en Hanni-Mari Autere op stem, viool, vryfstring-kantele, altblokfluit, kontrabas en Lapin-tromme. Stream Tracks and Playlists from Loituma on your desktop or mobile device. Loituma. a. L. N A R E K U Subscribe, join our community and discover a whole new world of music! http://goo. Topics loituma. Fińska grupa muzyczna Tuuletar wykonuje utwór levan Polkka autorstwa Eino Kettunen. . loituma-ievan_polkka s. I ursprungsuppsättningen ingick bl. Ievan polkka: 2. To Build A Home Tab by The Cinematic Orchestra, 59Th Street Bridge Song Feelin Groovy Tab by Simon & Garfunkel, Kids Tab by Current Joys and other tabs filtered by tab, novice @ Ultimate-Guitar. Wouldn't recomend if you don't like folk music. LetsSingIt is a crowdsourced lyrics database, created by and maintained by people just like you! Help contribute and earn points to increase your VIP level to get extra benefits. And of course this post wouldn't be complete without a link to the video of the real authors singing the original song. com. Loituma members compose or arrange the tunes by themselves, often using improvisation. 3:48. Udta Engineer. For more information, please read our cookie policy. Loituma - Samples, Covers and Remixes on WhoSampled. Eddig 173079 alkalommal nézték meg. Facebook Twitter. Utwór bardziej znany przez kwartet Loituma. Ievan äiti se tyttöösä vahti, vaan kyllähän Ieva sen The melody Loituma Ievans Polkka Live Techno Original Version should be only pertaining to trial considering much like the music you should purchase the first audio. Contributions: 10 translations, 27 thanks received, 6 translation requests fulfilled for 4 members, 2 transcription requests fulfilled, left 2 comments Loituma discography and songs: Music profile for Loituma, formed 1989. ロイツマ( Loituma )はフィンランドの伝統声楽とカンテレ(フィンランドのツィター)を組み合わせたカルテットである。 1997年にカウスティネン伝統音楽祭にてバンド・オヴ・ザ・イヤーに選ばれた。 Check out loituma's art on DeviantArt. Loituma . N A R E K U Subscribe, join our community and discover a whole new world of music! http://goo. fm! Loituma. You could hear the beat of polka coming from the neighbors More Loituma Lyrics. The animation was originally made popular by the site Leekspin. At ease with four-part unaccompanied vocals as well as four-part kantele instrumentals, Loituma was selected Band of the Year at the 1997 Kaustinen Folkmusic Festival. . 3:48. Beatport is the world's largest electronic music store for DJs Songtexte von Loituma mit deutschen Übersetzungen, Lyrics, Liedtexte und Musik-Videos kostenlos auf Songtexte. swf animation quickly made the rounds of various message forums and became known as the 'Loituma Ievan Polkka, Leekspin, Loituma Studio ( 84 Followers ) 84 Followers ) Projects ( 100+) Comments ( 33) Curators; Activity Jumped - Loituma Jumpstyle Remix by Dj Extreme Indo published on 2012-10-31T09:42:10Z. 1 ~みっくみくCDにしてやんよ~ 初音ミク -Project DIVA- extend Complete Collection 初音ミクライブパーティ2011 39's Thanks Live in Tokyo / Sapporo (Hatsune Miku Live Party 2011 39's Thanks Live in Tokyo / Sapporo (album) KARENT Presents Hatsumimi feat. flac" WAVE TRACK 04 AUDIO TITLE "Minuet and polska" PERFORMER "Loituma" INDEX 01 00:00:00 FILE "05_Kun Mun Kultani Tulisi Loituma Levan Polka (Jarnos Tribute To Basshunter Mix) Xibaloxijo. Ievan Polkka - Leekspin is written in the key of D♯ Minor. By using this site, you consent to the use of cookies. It is similar to scat in jazz. The content of the intermezzo varies from one performance to another and is not listed on most lyrics. Watch official video, print or download text in PDF. Tuning: E A D G B E. [1] Loituma is 'n a capella-kwartet van Finland wat die Finse sangtradisie met die klanke van die kantele kombineer. com/watch?feature=player_embedded&v=Zby2 Loituma is a Finnish quartet whose members combine the Finnish vocal tradition with the sounds of the kantele. Loituma estis la ”grupo de la jaro 1997” (finne: Vuoden yhtye 1997) en la muzikfestoj de Kaustinen. tuuletar. Our database consists of data about 52389 artists throughout the world as well as 829824 songs 15 of which are from loituma. After falling from popularity it was revived by Finnish band Loituma in the 1990's, and in 2007 a cover by Otomania was released, voiced by Hatsune Miku and accompanied by a video illustrated by Tamago. Loituma . Name Last modified Size; Go to parent directory: history/ 27-Oct-2020 21:39-__ia_thumb. Loituma is an ensemble that mixes the Finnish vocal tradition with the exquisite sounds of the kantele (Finnish harp). Com Loituma - Ieva's polka, Ievan Polkka good sound Loituma - "Ievan Polkka" (Eva's Polka)1996 Loituma Polka lyrics Loituma Levas Polka Levan Polkka Elektro Mix yfc Choose and determine which version of Ievan Polkka chords and tabs by Loituma you can play. The Loituma version of the song also includes an intermezzo of phonetically inspired gibberish containing only a few Finnish words; it is not part of the original song written by Eino Kettunen. See full list on en. Loituma Girl (also known as 'Leekspin') is a Flash animation set to a scat singing section of the traditional Finnish folk song "Ievan Polkka," sung by the Finnish quartet Loituma on their 1996 debut album Things of Beauty. org/viaf/151583566 Stream Loituma - Levan Polkka (GROZ Flip) by GROZ from desktop or your mobile device. org Loituma's songs convey the Finnish heritage, aided in the background by Martti Pokela and Toivo Alaspää. Kun mun kultani tulisi: 3. com/tuuletarbandhttps://open. 1 contributor total, last edit on Nov 13 Loituma by Loituma (Musical group) ( Recording ) 4 editions published in This is Ieva's Polka with all 5 Ievan Polka songs on it! 1. Rashad Polly. Jejich asi nejznámější písní je Ievan Polkka . spotify. The hystogmam below is the result of such an analysis perfoemed on loituma-ievan_polkka s. loituma 🎧 Follow TrapMusicHD 🎧Facebook: https://www. youtube. List of songs as made famous by Loituma. BMW COMPACT 320D SPORT M 193 CV secuencial con levas en el Lyrics to 'Ieva's Polka' by Loituma: Nuapurista kuulu se polokan tahti jalakani pohjii kutkutti. com. Tuning: E A D G B E. I adore both of their CDs equally, though I do have to say that Things of Beauty definitely has more of a melancholy and ancient feel (not including Ieva's Polka) while In The Moonlight has a more bouncy folk feel (not including Check out Loituma on Amazon Music. mid- [ instant csi ] - - [ rick roll ] - [ look of disapproval ] - - [ all your base ] - [ loituma / leekspin ] - [ peanut butter jelly ] - [ inception ] - [ sound matrix Stream Loituma - Ievan Polkka (Bailo Trap Remix) by Trap Music 2K17 from desktop or your mobile device This song was featured on the following albums: Hatsune Miku 1st Song Album VOCALOID2 MAXI Single Vol. Stepmania: Leva's Polka (Basshunter Remix Lyrics to 'Levan Polkka' by Loituma. The hystogmam below is the result of such an analysis perfoemed on loituma-ievan_polkka. Loituma. Loituma bu w nazymje lěta 1989 jako septet Jäykkä Leipä (‘prosty chlěb’) na Sibelius A Loituma művészetének másik sarokköve a kantele (finn hárfa). Loituma. The original lineup included singers Sanna Kurki-Suonio and Tellu Turkka (formerly Tellu Paulasto, Tellu Virkkala), who later left for Sweden to join Hedningarna. All I can say is that I found it here: http://www. Find the best version for your choice. Copiar vínculo. 2:45. AA kui. Latest Loituma Lyrics Levan Polkka Lyrics Tähden Lentäessä Lyrics Ieva's Polka (Ievan Polkka) (Basshunter Remix) Lyrics Hiekkarantakuhertelua Lyrics Ievan Polkka Lyrics Viimesen Kerran Lyrics Ai, Ai Taas Sattuu Lyrics Nuustielle Lyrics Laulu Laiskana Pitävi Lyrics Kun Mun Kultani Tulisi Lyrics Discover releases, reviews, credits, songs, and more about Loituma - Loituma at Discogs. Nevíte o koho jde? Základní informace o skupině Loituma si můžete přečíst tady. Shop Vinyl and CDs and complete your Loituma collection. Многія тэксты ўзятыя з карэла-фінскага эпасу «Калевала» і са збору фінскай народнай паэзіі «Кантэлетар». Basshunter - Loituma Remix. flac" WAVE TRACK 04 AUDIO TITLE "Minuet and polska" PERFORMER "Loituma" INDEX 01 00:00:00 FILE "05_Kun Mun Kultani Tulisi Files for flash_loituma. comment. Lyrics to 'Ievan Polka (English)' by Loituma. Skupina vznikla koncom roku 1989 a súčasnými členmi sú: Sari Kauranen (Kantele, spev) - Anita Lehtola (spev, päťstrunová kantele) - Timo Väänänen (Kantele, spev) - Hanni-Mari Turunen (spev, husle, päťstrunové kantele, altová zobcová flauta, kontrabass, laponský Ieva's polka - letra, canción: Nuapurista kuulu se polokan tahti, jalakani pohjii kutkutti. (from Wikipedia) Loituma's songs convey the Finnish heritage, aided in the background by Martti Pokela and Toivo Alasp??. Ievan äiti se tyttöösä vahti vaan kyllähän Ieva sen jutkutti, sillä ei meitä silloin kiellot haittaa Loituma – Ievan Polka (English) Lyrics. "Ievan Polkka" by Hatsune Miku is a cover of Loituma's "Ievan Polkka". Nuapurista kuulu se polokan tahti Jalakani pohjii kutkutti Ievan äiti se tyttöösä vahti Vaan kyllähän Ieva sen jutkutti S Things of Beauty is the U. At 1:08, a picture of Regan MacNeil from The Exorcist with no eyes pops up with a high-pitched female scream, ending the video. release of Loituma's first of two albums. The animation was originally made popular by the site Leekspin. Author xXBrowningXx [a] 54. The content of the intermezzo varies from one performance to another and is not listed on most lyrics. 2006-ban beindult a Loituma-láz, ennek köszönhetően számtalan remix és videó született, melyeket főleg a YouTube oldalain tekinthet meg az érdeklődő. 1995 Home. com Guitar tabs for Levan Polka by Loituma. Loituma выконвае песні і музыку народаў Фінляндыі — фінаў, карэлаў, саамаў. Ieva's Polka (original version) Basically like the the catchy Ievan Polka song with a catchy beat for the background music. An icon used to represent a menu that can be toggled by interacting with this icon. A dalok hangulatát és egyedi világát ez a két fő irányvonal határozza meg. Complete your Loituma collection. Author Juno_DG [a] 51. The sound of a polka drifted from my neighbor's And set my feet a-tapping oh! Ieva's mother had her eye on her daughter but Loituma; Loituma : Loituma. Compartir en Facebook LOITUMA STUDIO - Loituma Projects, a Studio on Scratch. 9:48. Loituma 's songs spent 1 weeks in the charts. 初音ミク Loituma estas finna popola muzikgrupo, kiu uzas en la muziko tradician finnan kantadon kaj kantelon. The sound of a polka drifted from my neighbor's And set my feet a-tapping oh! Ieva's mother had her eye on her daughter but Ieva she managed to fool her, you know. Багато текстів узято з карело-фінського епосу «Калевала» і зі збірки фінської народної поезії «Кантелетар» . Albums include Ieva's Polka, Loituma, and Nordic Roots 2. Loituma - Clock Share Collapse Notice: Many browsers are beginning to disable or hide the Adobe Flash plugin, in preparation for its end-of-life in December 2020. Copiar vínculo. Zafe. [1] Play Loituma game online. See full list on knowyourmeme. Loituma's profile including the latest music, albums, songs, music videos and more updates. Am Nuapurista kuulu se polokan tahti Em Am Jalakani pohjii kutkutti. Loituma bu w lěśe 1997 pśi „Kaustinen Folkmusic Festival“ k „Band of the Year“ wuzwólona. Download Now on Beatport. com/artist/0sOlXdASHK2G1ZFP5UiZ6RTUULETAR - IEVAN P Loituma, מפינית (תעתיק: לויטומה) היא רביעייה פינית, שחבריה משלבים את המוזיקה המסורתית הפינית עם צלילי הקנטלה. Artist · null monthly listeners. Find more of Loituma lyrics. 1,097,225 Lyrics; 110,886 Artists; Loituma é um quarteto que combina a Tradição Finlandesa com uma série de sons de Kantele (Harpa Finladesa). Basshunter - Loituma Remix. loituma